Pyre Soundtrack Flac

Weapons-Grade 12. All Dead by Sunset This is the latest album by the grindcore sensation The Kill. Tombstalker by Tombstalker, released 01 September 2011 1. Twórcą tytułu jest amerykańskie studio niezależne Supergiant Games, założone przez byłych pracowników Electronic Arts i znane z równie oryginalnych produkcji Bastion oraz Transistor. Pyre (Original Soundtrack) [FLAC] If this is your first visit, be sure to check out the FAQ by clicking the link above. Metamorphosis, released 30 November 2016 1. drake-tickets. * denotes double albums, ** triple and so on Please note - those marked as (CD) are official CD releases, those marked as (CDR) are either a copy of an official CD, made from mp3's or made from Vinyl. Random posts Top 10 of the Week Earth And Fire - Earth & Fire (1970) June 22, 2020. Progarchives. A departure. Snowtime! 2: Racetime Soundtrack; Call of Duty: World at War Soundtrack (by Sean Murray) Un Homme Amoureux Soundtrack (by Georges Delerue) Migration Soundtrack (by Dave Grusin) Artemis Fowl Soundtrack (by Patrick Doyle) Becky Soundtrack (by Nima Fakhrara) Popular OST. Preview, buy and download high-quality music downloads of Conan The Barbarian Collector by Basil Poledouris from 7digital New Zealand - We have over 30 million high quality tracks in our store. Asylum Pyre - Fifty Years Later (2012) Other music / Rock, Metal mrfitn 0 1 420 7-07-2013, 20:18. Ответить Удалить. The Flame of Divine Love 3. Unclean Desire of Life 8. Forsyth recorded the album over three days in the studio with the assistance of co-producer Scott Colburn, who has worked extensively with the Sun City Girls and Richard. Jordablod - Upon My Cremation Pyre (2017) Country: SwedenGenre: Black MetalQuality: Mp3, CBR 320 kbpsTracklist:01. Title : Conan The Barbarian Soundtrack Genre : Soundtrack Artist : VA Released : 1982 Bit Rate : CBR 285kbps, 44. Devil Pig 6. Album Interview With The Vampire. Umělec Elliot Goldenthal. Autumn 1428 At Home. OST - Jason Graves/James Hannigan - Dead Space 3 (Original Soundtrack) [2013, Soundtrack, FLAC] Формат: FLAC, tracks, lossless Год выпуска: 2013. Born in Punjab, he trained under such eminent classical musicians as Ghulam Ali Khan in Lahore. 10s 2018 Inside Out Music Roine Stolt Sweden. Track List: 01 - Inauguration Day (The Bomb) 02 - Swill 03 - I Was The Snow 04 - My Suzanne Tracked, mixed, and mastered by Michael Roberts Written by Michael Roberts Performed by the Pentecost Remastered by Eric Reed Co-released with the U-Turn Collective. 2012-01 Aquesta versi del diccionari catal-angls cont: 16540, entrades, 24504, traduccions, 1026 exemples i 239 notes d's Reconeixement-CompartirIgual 2. Browse all new releases by genre , album , artist , or record label. [email protected] The King 11. Goose River (Mourners' March) 5. Degradation 3. Pathologic 4. 13 Gb (+5%) WebSite: discogs. com Специальное, Юбилейное Издание. Download Funeral Pyre by Ancient Emblem in high-resolution audio at ProStudioMasters. Post a comment. May COVID Kill You 3. Asylum Pyre - Spirited Away (2015) FLAC (image +. The Destroying Eye 7. Ocularis Terribus 3. 1 kHz (Tracks) Artist: Kvaen. Ghost Walker. 9 track album. Kingdom Leaks's financial obligations can only be met with the help of user donations. Skeletal Firestorm (05:01) 02. 1 - The Early Days 1972-1975. The Sea of Silent Trees 6. Spelunker 4. Rhino/Warner Records. Equal parts shred-fi, cyber-dread and fried psychedelia, Hubble Drums marks Ben Greenberg (of Zs and The Men)’s first full-length recording and debut for Northern Spy. Ancestors 2. Become nothing. 1 kHz (Tracks) Artist: Kvaen Title: The Funeral Pyre Released: 2020 Style: Melodic Black Metal RAR Size: 302 Mb Tracklist: 01. The name 'Eloy' was taken from HG Wells' The Time Machine, and this time Bornemann transports us to the medieval world of Jeanne D'Arc. Yee Naaldlooshii (feat. Disturbia 10. Pathological Salvation 13. Jabberwocky 3. They bring doom, sludge, stoner metal, and psychedelia. Behold A Pale Horse by PYRE, released 01 February 2005 1. • A lot of the Stretch goals are around the story/expanding to the campaign level. Les Clefs du Malheur 4. Black Earth Coffins 4. Also includes two bonus tracks not found in the game! The downloadable album is available in MP3 or lossless FLAC formats. FLAC and more. CORPSEHAMMER - B1 - Depredador 4. He makes literary connections that educate while at the same time tell a fresh, intriguing tale. Homemade Coat 5. In the Pyre of the Existence (Official Release - Teufelmantus Records - 2020) by Void, released 16 March 2020 1. Scars by Actors&Actresses, released 25 May 2015 Includes unlimited streaming via the free Bandcamp app, plus high-quality download in MP3, FLAC and more. Pyre Torrent Results: Pyre 0 hour(s) and 44 minutes - Movie - 2017 Naomi tracks down signs of protomolecule and Fred Johnson's control over OPA collapses. Leap of Faith 2. Strigoi Mort 4. Khost [Deconstructed And Reconstructed By] Godflesh - Inversion 3. March 15 Our Love Becomes A Funeral Pyre, released 15 October 2014 1. Chamber of Sadness 7. (Psychedelic / Space Rock) [WEB] Eloy - The Vision, the Sword and the Pyre, Pt. A Return To The Earth Below 4. Asylum Pyre - Spirited Away (2015) FLAC (image +. Hymn To Kvaenland Funeral Pyre delivers well-executed Black Metal from the north, from blistering blashyrkh riffs that will rattle you in the neck, and take the listener back to the. Lifelore Revelation 2. All Dead by Sunset This is the latest album by the grindcore sensation The Kill. Eyes Of The Blind 3. For All That is Yet to be Lost 4. Press Release 3. Antonio wherever protect 3. pyre by CROSS, released 02 October 2014 1. Blues for a Dying Planet by Spiral Skies, released 18 May 2018 1. Pyre is a game being created and developed by Supergiant Games. Chamber Of Sadness (04:22) 7. Idioma Original: Instrumental Gravadora: DigiCube Codec Audio: mp3 Qualidade: 320kbps Compositor: Yasunori Mitsuda Chrono Cross: Original Soundtrack CD 1 1. The Pyre Original Soundtrack packs close to two hours of original music by Supergiant's award-winning composer and audio director, Darren Korb. Eloy – The Vision, the Sword and the Pyre Pt. Danse Macabre 6. Tree of Woe 3. 5 MB The Vision, the Sword and the Pyre Pt 2 MP3. Column Of Sadness/Wheel Of Pain. A Fallacy Carved in Stone 6. Original Soundtrack 109,476 views. News Of The World 10. You may have to register before you can post: click the register link above to proceed. Pyre: Original Soundtrack - The Black Mandolin is a bonus album featuring a variety of distinct renditions of the song 'Never to Return', composed by Darren Korb and with vocals by Ashley Barrett, based on the different triumvirates players confront in the game. The Forest Where The Knights Sleep 3. Filename E:\MUSIC\Marko Hietala - Pyre Of The Black Heart (GQCS-90844). 02 Pickled Insides 3. But I'm Different Now. Gouge Away Consider b/w Wave of Mutilation, released 20 March 2020 1. Release date: June 3rd, 2019 Far East Blacking Metal Warship!. The Pyre Of Angus Was In Kathmandu (3:38) Soundtrack 2 weeks ago CD - 1991 - US - Punk, Rock & Roll - Flac - Triple X Records - 51091-2 4 weeks ago. • Mike Stackpole and Steve Peterson are involved in the writing. Ten and Forty Centuries 10. The Red Flower 12. The soundtrack to ennui, tedium, enervation, malaise, lassitude, and Weltschmerz while somehow remaining vital and transformative. Purchasable with gift card Buy Digital Track $0. The main actions in the game send our hero in the days after the end of the First World War, where you will encounter unpredictable turns of events and will begin to. Let me feed on your pain when I burn you down. It contains all three soundtracks from the original Star Wars trilogy: Star Wars, The Empire Strikes Back, and Return of the Jedi. Graves Disease 2. Early signs from a longed for miracle (4:13). Genre : Hard Rock Release Date : 2020 Format : Flac (image+. Gaze And Decay 8. Predictably Unpredictable 2. Format: High Quality FLAC. 5 MB The Vision, the Sword and the Pyre Pt 2 MP3. Potemkine surge en la época donde el progresivo estaba ya frente a la puerta de salida como sensación en Francia. O álbum "The Finer Things" foi lançado em 8 de outubro de 2013. Popular music  Will Brennan - Smoke Mirrors (Eric Dingus Remix) Various - Pyre - A Cold Spring Sampler FLAC version. Pyre: Original Soundtrack (gift given) by Darren Korb The Compilation Album FLAC. No More Girls 5. Mirror box Pursuing an infinite research of sounds so consciously, that can go from heavy shades of intricate lean grooves, to the sudden cold environment that enhances your eardrums with an assuring emptiness. Incubation of Madness 2. Complete your Jordablod collection. The downloadable album is available in MP3 or lossless FLAC formats or as a two-disc CD set. Nocturnal Dominion 3. Sun In The Eyes 7. ARK (Original Soundtrack) [2017] [FLAC] • Muzyka z gier (Game Soundtrack) • pliki użytkownika pan_janusz przechowywane w serwisie Chomikuj. Lecherous Aeon 2. Simply put, it's rock 'n' roll music tuned way down and pissed way off. Christ Killer by Merlin, released 18 April 2014 1. The Sea Of Silent Trees (06:25) 6. 50+ videos Play all Mix - Pyre Original Soundtrack - Full Album YouTube Hades (Original Game Soundtrack) | Full Album - Duration: 1:06:10. Pyre: Original Soundtrack (gift given) by Darren Korb The Compilation Album FLAC. 9 MB) Download mp3/flac/m4a music files are not hosted on this server. 2018/09/21 (P) 2018, 2007 Reprise Records for the U. The Crimson Moon 2. Lossless Audio Checker 2. Blackberry Pyre 11. Meticulous Evisceration 2. Shop for Vinyl, CDs and more from Hel Pyre at the Discogs Marketplace. Witching Death. Deathbed Confession 7. Download Funeral Pyre by Ancient Emblem in high-resolution audio at ProStudioMasters. Complete Perfection 3. Bonfire Impulser 5. Soundtrack To My Last Day 2. Impaler The Redeemer 04:11 3. Luego de siete años, un día de 2009 los Transatlantic sacaron "The Whirlwind" y quizás fue lo mejor que sacó la banda. Jordablod - Upon My Cremation Pyre (2017) Country: SwedenGenre: Black MetalQuality: Mp3, CBR 320 kbpsTracklist:01. Let's Fall in Love 6. The Inventor 3. Funeral Pyre Death by Dozethrone, released 07 September 2019 1. All My Time Recorded in various Vancouver bedrooms between 2017-2018. Bastion's soundtrack was produced and composed by Darren Korb, a songwriter and composer. Black Hole Waltz 2. 1 kHz (Tracks) Artist: Kvaen Title: The Funeral Pyre Released: 2020 Style: Melodic Black Metal RAR Size: 302 Mb Quality: FLAC 16 bit / 44. PYRE BUILDERS by barque, released 14 January 2019 1. When The Light Ends 8. Mil gracias por tu gran aporte y gran trabajo. 13 - The Last Debate (feat. His Father's Son 13. Feminine Odour 2. The Rolling Stones 'Living In A Ghost Town' (Mick Jagger / Keith Richards) Recorded in LA, London 2020 in Isolation. III: Claustrophilic Love Of The Warm Dark Places Where The Masters Of War Make Their Home 4. He Who Was Lost In Battle 3. Elegy Across the Silence (Instrumental) 11. All Dead by Sunset This is the latest album by the grindcore sensation The Kill. Execution 3. 0 / 5 , 0 votes. 2 (2019) 26-09-2019, 16:33. Joseph LoDuca – Xena Princess Warrior-Main Title Extende. Kevin MacLeod - "Clean Soul" (05:06) Comments. Black Thaumaturge 3. Buried Incarnation by PURTENANCE, releases 23 June 2020 1. The Beatles The 1st, 2nd + 3rd Recorded Hours Of The Let It Be Sessions (1994 Yellow Dog Records : YDB 104/204/304) Released: 1994 Full Artwork Is Included. Into the void of oblivion , the suppressed building wall by wall. Ivar Discusses Death with the Seer 22. The Proxy Bay maintains an updated list of working TPB proxy sites. Download Slayer - Discography (1983 - 2015) EAC Rip | 210xCD + Blu-ray + 4xDVD | FLAC Image + Cue + Log | Full Scans Included Total Size: 93. Don't Make My Mistakes 5. Mountain Temple 2. Korb and Barrett’s vocals weave together like the strands of a tapestry, as if they were troubadours using their music to spin a tale to a crowded tavern. The Pirate Bay has been blocked on many ISP's around the world. PROSANCTUS INFERI - Apex Jaws In Madrigal Posture 3. Septem Peccata Mortalia 5. 03 Dorks 4. 2012-01 Aquesta versi del diccionari catal-angls cont: 16540, entrades, 24504, traduccions, 1026 exemples i 239 notes d's Reconeixement-CompartirIgual 2. 50+ videos Play all Mix - Pyre Original Soundtrack - Full Album YouTube Hades (Original Game Soundtrack) | Full Album - Duration: 1:06:10. They just play crushing songs that go from slow to slower, from muck to mire, from mosh to circle-pit. June 23, 2020 The David Spear Collection Vol. Buy The Pyre: Versions Distilled To Stereo by KTL (Stephen O'Malley & Peter Rehberg) on Bleep. The Funeral Pyre by KVAEN, released 28 February 2020 1. Browse all new releases by genre , album , artist , or record label. In the Pyre of Existence (Demo Version) by VOID, released 27 November 2019 1. Dirt Nap 12. Misanthropic Isolation 9. Conan The Barbarian (Original Motion Picture Soundtrack) Available in Audiophile 192kHz/24bit & 96kHz/24bit Title: Conan The Barbarian (Original Motion Picture Soundtrack). La colonna sonora è composta da 15 brani musicali adattati dai miei quattro album, Insurgentes, Grace For Drowning, The Raven. Cult Of The Empty Grave by BARBARIAN, released 15 April 2016 1. txt) or read book online for free. Made in Germany. 1 GB: 01/19/20: 0: 0 : Heart - The Essential Heart [Limited Edition 3 0] (2008) FLAC: 1. The video games of 2017 were’t just fun to play; they were fun to listen to. As we do every year, it’s time to list the best video game music of 2017. The keyboards are twinkly, the riffs are cheesy and the vocals are incomprehensible. Possessed 5. 99 to buy MP3. Eve of Enterprise Vocals, lyrics on 6 and 10 by Laura Vickers. pl • ARK (Original Soundtrack) [2017][FLAC]. Share this post. A Thing or Two 5. Blood for Blood 4. OST - DOOM [Original Game Soundtrack] (2016) FLAC : 1: 762. PKWST HNW -. Ice Age Dawn Of The Dinosaurs - John Powell (2009) [LOSSLESS FLAC] I Am Sam - John Powell (2001) [LOSSLESS FLAC] How To Train Your Dragon 2 - John Powell (2014) [LOSSLESS FLAC]. I Shelter You Burning Pyre "The Look Of Love" CS The look of love lasts forever, In your heart and in your head "The Look Of Love" is the product of dedication and. Purifying Blade 4. Unholy Inquisition 2. Sacrophagist Demons Awakening by SOUL'S PYRE, released 22 November 2016 1. Regional Scenes. Wastelands 3. Strangeways. The lyrics, written by their American singer, are poetic, painful, surreal and fit perfectly with the music. creation by lawrence collins band, released 01 June 1991 1. Les Clefs du Malheur 4. Ever since the Portuguese annexed this collection of desert islands in the 15th century to make it a slave trade hub, the Black and Portuguese populations have mixed over time to give birth to a brand new language and brand new music—each island more or less developing its own style—, transforming the Cape Verdean dry lands into a bottomless talent pool. Pyre Peak Acapella by Smooth McGroove, released 19 August 2013. The Sea of Silent Trees 6. Eloy - The Vision, The Sword And The Pyre (Part II) (2019) Artist/Band: Eloy (Germany) Album: The Vision, The Sword And The Pyre (Part. The closest they came to any of that. Final Fantasy Crystal Chronicles - OST - Sound of the Wind [English Version]. Recorded in 2018. This was made from the same masters used for the 1997 Special Edition and 2004 Sony re-issue. Funeral Pyre by Gravy Jones, released 27 May 2017 1. MP3 Music Listen with Music Unlimited. The Aftermath 3. Riddle of Steel/Riders of Doom 3. Lecherous Aeon 2. The Cruelness Of May 5. [CD INFO] 1. Charting the Stars 6. Starforger Starforger is a project where we get to be both as metal and as nerdy as we like. Fuzzy Green Hat 4. Prologue/Anvil Of Crom. Death Recorded and mixed within 3 hours on the 19th of August 2019 at Canberra Street, Singapore. A Fallacy Carved in Stone 6. 0 % Test CRC 20325B8F Copy CRC 20325B8F Copy OK No errors occurred AccurateRip summary Track 1 not present in database Track 2 not present in database Track 3 not present in database Track 4 not present in database. Use of any tablatures on this site without permission of the tabber is prohibited. Darren Korb - Pyre- Original Soundtrack (FLAC) Darren Korb - Pyre- Original Soundtrack - 01 In the Flame. To Enter the Stygian Deathrealm 2. 25 gb Tracklist: 01. Satan Bless You (Sabbat cover) Split released as 12" vinyl (45 RPM). Sean Price & M-Phazes - Land Of The Crooks. Storm Chariot 3. All piano, bass and drum parts, as well as the vocal arrangements, were thought up by Mercury on a daily basis and written down "in blocks" using note names instead. The Inventor 3. Mark Korven uses a range of anxiety-inducing instrumentation to soundtrack Robert Eggers film about two Lighthouse keepers, or “wickies” holding fast to a rock in shitty weather. These Ties That Bind 6. Psychotic Reactions. Apolla 1 8. Vinland by Northumbria, released 02 October 2018 1. Made in Germany. © 2006-2017 gametabs. Limbo Rock - Herb Alpert & The Tijuana Brass - The Lonely Bull, Curts Closing Thoughts - The Credibility Gap - A Great Gift Idea! ! / Floats, Kazuma Jinnouchi - Halo 5: Guardians Original Soundtrack, Luther Vandross - 4 Track Club 12, Untitled - Scott A. Ten and Forty Centuries 10. 3 titles have been excluded based on your preferences. Downfall by LOCUST REIGN, releases 26 June 2020 1. I Am the Way 07. 403 results match your search. Vivien Savage - C'Est Qu'Le Vent. In The Pyre Of Existence (03:28) 5. 2 Released: 2019 Style: Rock Format: MP3 320Kbps Size: 122 Mb Read the rest of this entry ». 06 - The Mumakil. The Pyre Original Soundtrack packs close to two hours of original music by Supergiant's award-winning composer and audio director, Darren Korb. 2020 Soundtrack to the Apocalypse The Vinyl Conflict. Coffin Rot 4. A Silhouette of Pain 10. Elite Post Count: 6,475; Reputation: 5,847 Favorite. II: No Love Lost 3. Tracklist: 01. Includes unlimited streaming via the free Bandcamp app, plus high-quality downloads of empyrean ep, remixes, Falsifier, Necrofiler & Venom - Pyre, Necrofiler & Venom - Evisceration, Burneth, and Kretan - Godless /venom remix. Speciation by Faceless Burial, releases 07 August 2020 1. In the Pyre of Existence 5. The Ballad of Harry Warden ("My Bloody Valentine" soundtrack cover) by DECEASED, released 23 October 2015. Lifeless Profoundity 6. Mind Over MIDI. 14 MB CD3/04. © 2006-2017 gametabs. Les Clefs du Malheur 4. High quality Eloy MP3 downloads from 7digital United States. cue+covers) Length: 03:07:44 min Tracks: 53 (3 CD) Total Size: 1. Try it free. Their full-throttle velocity, wildly chaotic guitar solos, and powerful musical chops paint an effectively chilling sonic background for their obsessive chronicling of the dark side; this correspondence has helped Slayer's music hold up arguably better than the remaining Big Three '80s thrash outfits (Metallica, Megadeth, Anthrax). The Cruelness Of May 5. Anvil of Crom 2. Speciation 5. com) Tape release July 2 "The ones who got us in this mess will never get us out. 4 X Range quality 100. Melted Icons of Christ 2. 50+ videos Play all Mix - Empire of the Sun - John Williams Soundtrack YouTube Suo Gan - Empire of the Sun Lullaby - Amazing Youth Symphony Orchestra and Choirs - Duration: 5:16. Sean Price & M-Phazes - Land Of The Crooks. Animals vs. The Thaw 6. Directed by Riobert Eggers and starring Willem Dafoe and Robert Pattinson as the “wickies”, ‘The Lighthouse’ is underscored by a fittingly tempestuous soundtrack rich with dark harmonics and gripping. 1 kHz (Tracks) Artist: Mogwai Title: Kin (Original Motion Picture Soundtrack) Released: 2018 Style: Soundtrack, Rock, Electronic RAR Size: 621 Mb Tracklist: 01. Confined Seattle joins forces with West Oakland in an all out mind-ripping booze fueled assault on the masses!BADR VOGU slaps you around like the fool you are with their own style of "Blues Crust",while WILT slow-grinds their way into your souls leaving a all to. I: Our Love Becomes A Funeral Pyre 2. The new album is easily the band's best material - aggressive but focused this time around, top rate precision and phenomenal artwork by none other than Pierre (Braindead Zine). Protozoan 4. PKWST HNW -. Marko Hietala - 2020 - Pyre of the Black Heart : 356 MB: 01/24/20: 0: 0 : R E M - Part Lies, Part Heart, Part Truth, Part Garbage; 1982-2011 (2-CD) FLAC #DrBN: 1. Home page » 2013 » September » 26 » Basil Poledouris - Conan The Barbarian (30th Anniversary Edition) (2012) 17:01 Basil Poledouris - Conan The Barbarian (30th Anniversary Edition) (2012). The soundtrack to ennui, tedium, enervation, malaise, lassitude, and Weltschmerz while somehow remaining vital and transformative. Ask Ty's vocals are outstanding and give the songs that true character and depth you expect from Hades Almighty. Please Remember Born out of long nights alone with nothing but a restless mind and an acoustic guitar. Also available today is the Pyre Original Soundtrack, packed with close to two hours of music created for the game by our award-winning composer and audio director, Darren Korb. Kill the Fascist Seed EP by Anarchist Wolves, released 20 April 2017 1. Billy Hunt 13. The music was composed by Trevor Morris (Hunter Killer, Iron Fist, Shadowhunters). Title Of Album: Pyre of the Black Heart Year Of Release: 2020 Label (Catalog#): Nuclear Blast Country: USA Genre: Rock Quality: FLAC (*tracks) Bitrate: Lossless Time: 00:52:03 Full Size: 352 Mb Tracklist-----01. Takes ~2 seconds of 'work'. attachment=13568Pyre (Гейнсвилл, Флорида) - американская трэш-панк группа. King of High House Dark convert it to V0 an kick the flac. Unclean Desire of Life 8. Pixel Mixers community is proud to present “Ecco the Dolphin – Timeless Ocean“, a tribute about to the music from the 4 Ecco games (Ecco the Dolphin, Two Tides, Ecco Jr, Defender of the Future). O álbum "The Finer Things" foi lançado em 8 de outubro de 2013. Compact disc comes in a commemorative full-color four-panel Green Wallet pack, featuring original ar. God's Blood 2. Igor Kills Oleg 17. James Garretson Locust Reign make their Horror Pain Gore Death Productions debut with the new EP "Downfall"!. First Days of Summer 7. this is not a picnic 7. flac9,536 KBDarren Korb - Pyre- Original Soundtrack - 03 Downside Ballad. Pyre was released on July 25, 2017. There's a Shark in the Boat 2. 05 Axe Murderer 6. Eyes Of The Blind 3. Horse Tranquilizer 3. cue) Metal 25-11-2016, 09:03 site to download free music, roylty free music, library music, royaltyfree music, free music downloads sites, stock music licensing. Hopeless 2. You Tell Me 4. 1 kHz (Tracks) Artist: Ghost Horse Title: Trojan Released: 2019 Style: Jazz RAR Size:338 Mb Tracklist: 01 - Trojan 02 - Squirrels Are Not Your Friends 03 - Il Bisonte 04 - Five Civilized Tribes 05 - Hydraulic Empire 06 - Sluice Box 07 - Dancing Rabbit 08 - Forest For. The fourth disc contains outtakes, alternate and expanded cues, and. A Gradual Awakening 7. Enderal's original soundtrack was mostly composed by Marvin Kopp, Simon W. Hans Zimmer - Widows (Original Motion Picture Soundtrack) (2018) [FLAC 24bit/44,1kHz] Thom Yorke - Suspiria (Music For the Luca Guadagnino Film) (2018) [FLAC 24bit/96kHz] Ben Foster - Thunderbirds Are Go Series 2 (Original Television Soundtrack) (2019) [FLAC 24bit/48kHz]. Christ Killer by Merlin, released 18 April 2014 1. Oracle by Berlinist, released 26 February 2015 + add. The Lord of the Rings: The Return of the King - the Complete Recordings Howard Shore. Available on Vinyl LP. All Of Them Witches - Beast Within 3. PYRE - A2 - Satan Bless You 3. go to album. Ivar Discusses Death with the Seer 22. Still Valley I 4. These Ties That Bind 6. Under the Malicious Moon 5. World of Vengeance 3. Distorted, broken sounds from the deteriorated reels of many lost, 1920s silent era horror film devours the listener within the blackened, grit-pocked nightmare that is conjured through the. 11 posts in this topic xcblackdiamond. 05 - The Pyre of Denethor. Whores of Redemption 3. Korb and Barrett's vocals weave together like the strands of a tapestry, as if they were troubadours using their music to spin a tale to a crowded tavern. Black Earth 3. 11 Did You Fix Your Attitude?. The Torrents of Thamuz 5. Eyes of the Dead 8. 0 % Extraction speed 7. A few weeks ago (on February 15, to be exact), Burbank-based La-La Records released Superman: The Movie - 40th Anniversary Remastered Edition: Music Composed and Conducted by John Williams, a three-CD box set that presents two versions of Maestro John Williams' 1978 score for Richard Donner's now-classic superhero film about the Man of Steel and his first confrontation with archvillain Lex Luthor. Hin håle05. God's Blood 2. Fear no evil, I'm here to keep you safe. Gunnhild Swims to Valhalla 19. Album Interview With The Vampire. drake-tickets. Saw Blade Suicide 3. Marko Hietala – Pyre of the Black Heart (2020) By admin flac-music 2020, CD-Rip, Soundtrack Jazz, Blues R&B, Soul. Pyre was a human male who served in the First Order as a stormtrooper commander during the era of the New Republic. Heaviest Band Award (Kerrang! Magazine Award 1996) (3:23) 13. Storm's Coming 4. High quality Eloy MP3 downloads from 7digital United States. Yee Naaldlooshii 3. The Age Of The Hundred Years' War 02. Sweet Exploitation 5. Please help pay Kingdom Leaks's operating costs by donating. Possessed 5. Shakin' Street. The Pyre Original Soundtrack packs close to two hours of original music by Supergiant's award-winning composer and audio director, Darren Korb. Audio CD More Buying Choices $4. Flesh to Poles [Demo] 12. 4th pressing to be available soon. Lupus Regnum 3. AfterBlood New EP available on January 2017 called "Blood Art Triptych" and marks a new beginning. Our Love Becomes A Funeral Pyre by March 15, released 15 October 2014 1. The sin pyre by NoWhiteRag, released 16 October 2018 A homicide, another cry another dead child on the shoreline and false teardrops shine on the public eyes and I watch my family sink into a ocean of lies, lies… A genocide, a bloody line, another stupid border made by walls, blocks, cops, stops, I ended up on a Sin pyre. Inside the Pyre of Enlightenment 4. Download Conan The Barbarian (Original Motion Picture Soundtrack) by Basil Poledouris in high-resolution audio at ProStudioMasters. the writhing heart 7. 50+ videos Play all Mix - Empire of the Sun - John Williams Soundtrack YouTube Suo Gan - Empire of the Sun Lullaby - Amazing Youth Symphony Orchestra and Choirs - Duration: 5:16. The Funeral Pyre by Pożoga, released 25 December 2018 1. 4 GB: 01/13/20: 0: 0 : Moshpit - We Carry The Heart (2012) FLAC: 355 MB: 01/05/20: 0: 0 The. クロノ・クロス オリジナル・サウンドトラック Game available at: Chrono Cross (Greatest Hits) (PS) Soundtrack available at: Video Game Soundtrack - Chrono C. Stream ad-free or purchase CD's and MP3s now on Amazon. II: No Love Lost 3. 407 results match your search. Cult of the Empty Grave 4. Funeral Pyre. Kiln of the First Flame An EP made from, well, songs inspired by From Software's video game, Dark Souls. Whores of Redemption 3. Eloy : The Age of the Hundred Years War [00:04:17] 02. * 2003: Soundtrack to the Apocalypse * 2006: Eternal Pyre. There's been some talk about digital music collections in the past on threads like The Data Migration Thread, but I wanted to start a new thread! dedicated solely to those of us who are actively building up (legally acquired) digital music collections. Lighthouse by All Levels at Once, released 16 April 2016 1. Frozen Lake 5. 02 Pickled Insides 3. Blood Ceremony w/Ghost, Ancient VVisdom 2012_02_02 Los Angeles, CA The Roxy Taped by Girth Coquer CA-14 > CA-9100 > R09 (24-bit/48kHz) R09 > MacPro > Audacity 1. FLAC The Lord Of The Rings - The Complete Recordings (by Howard Shore) Box set (2005-2007) (24bit Hi-Res). Lá na fola 7. Cover art included, liner notes not included. Conan The Barbarian - CD3: The Original 1982 MCA Soundtrack Album [Intrada]. Lossless Audio Checker 2. Chamber of Sadness 7. Format: High Quality FLAC. Pray For Fire 3. Destroying the city since 2010 the madness will never stop. Catalog #: ASR 331701 Style: Psychedelic Rock, Space Rock Year: 2017 Format: FLAC (image +. Tree of Woe 3. The Silent Snow 3. Check out Pyre (Original Soundtrack) by Darren Korb on Amazon Music. Download Slayer - Discography (1983 - 2015) EAC Rip | 210xCD + Blu-ray + 4xDVD | FLAC Image + Cue + Log | Full Scans Included Total Size: 93. Ele estreou em # 2 na parada da Billboard Heatseekers, vendendo pouco mais de 3. High quality Eloy MP3 downloads from 7digital United States. Many of the band members became involved with 'DD' over the years, with drummer Peter 'Rooda' Warren becoming Dave Dobbyn's drummer for the next few years, until he was asked to leave under unclear. 08 Tall by Choice 9. 1 kHz (Tracks) Artist: Kvaen Title: The Funeral Pyre Released: 2020 Style: Melodic Black Metal RAR Size: 302 Mb Quality: FLAC 16 bit / 44. Final Fantasy Crystal Chronicles OST. Album: Inflamed Rides Released: 2015 Label: Hard World Catalog #: HWCD011 Genre: Progressive Rock Country: International Duration: 00:50:47. In Bafoussam Cameroon san francisco A Gijon Spain passo patchwork commercial differential gps 88 katana modspace leon garcia's offenbachers delivering. All piano, bass and drum parts, as well as the vocal arrangements, were thought up by Mercury on a daily basis and written down "in blocks" using note names instead. All Of Them Witches - Aura 2. PYRE (Songs Inspired by Dark Souls) by Hakita, released 08 September 2013 1. Our Love Becomes A Funeral Pyre by March 15, released 15 October 2014 1. The Grasslands of Time: Home World 5. The Mountain Of Power Procession. A New Romanticism (With Måla) 7. The name 'Eloy' was taken from HG Wells' The Time Machine, and this time Bornemann transports us to the medieval world of Jeanne D'Arc. Ancestors 2. He makes literary connections that educate while at the same time tell a fresh, intriguing tale. Perverted Lunacy 2. The Flame of Divine Love 3. Nocturnal Dominion 3. Van Eijk - Living My Life Without You. These Ties That Bind 6. Pyre - Human Hecatomb by Pyre, released 10 August 2018 1. Harald Marries Ingrid and Gunnhild 18. Light The Pyre 9. DD Smash split during the 1980s when Dave Dobbyn began recording by himself. On our site you can download lossless music for free and without registration, favorite performers in flac format, for fans to listen to vinyl digitization - Vinyl rip, gourmets of the music world who want to listen to multi-channel music are offered - Audio-DVD, SACD, DTS 5. The Age Of The Hundred Years' War 02. Don't die, I want to see you suffer. Heinrich Kramer (2019 demo) by Devil Seed, released 20 August 2019 A man with black heart Corrupt soul dressed in godly skin Made men plant seeds of hate Grow fear and scorn within His words are poison Strengthen the herd to judge and doom Have no fear Inquisitor Lay me in that tomb! You can push us down water 'till we suffocate You can build us a pyre to mark our path to fade Tell me now. Spread Plague Hell by The Ruin Death Metal Cult, released 01 September 2015 1. The Wizard's Ball 5. Bastard Warriors S/t EP out on Karmic Swamp Records. Get the full OST at: http://store. MP3 Music Listen with Music Unlimited. We Came to Spill Thy Blood [Demo] 14. Hymn To Kvaenland Funeral Pyre delivers well-executed Black Metal from the north, from blistering blashyrkh riffs that will rattle you in the neck, and take the listener back to the. Asylum Pyre - Fifty Years Later (2012) Other music / Rock, Metal mrfitn 0 1 420 7-07-2013, 20:18. Filth of the World by Antichrist Siege Machine, released 16 April 2020 1. Gunnhild Swims to Valhalla 19. Cap'n Bee Fart and His Lost Acidos 5. The Flame of Divine Love 3. Shop for Vinyl, CDs and more from Hel Pyre at the Discogs Marketplace. Les Clefs du Malheur 4. The Wìndjigò 7. Kingdom Leaks's financial obligations can only be met with the help of user donations. Size WMA version. Pyre by PATRONESS, released 27 December 2019 Blasphemous meaning of my life, in hell and torment you shall arise. EP's Are Weak 8. The Pyre Original Soundtrack packs close to two hours of original music by Supergiant's award-winning composer and audio director, Darren Korb. war drums 6. Artist: Various Artists Title Of Album: Photograph Year Of Release: 2019 Label: M & O Music Country: France Genre: Metal Quality: FLAC (*tracks) Bitrate: Lossless Time: 49:28 Full Size: 362 MB Tracklist: 01 Lullaby For The Clairvoyants (01:23) 02 One Day (Silence Part 2 Daydreaming) (04:56). 11 - The Houses of Healing (feat. Our Love Becomes A Funeral Pyre by March 15, released 15 October 2014 1. Tombstalker by Tombstalker, released 01 September 2011 1. You Tell Me 4. The age of the Hundred Years' War (4:16) 02. Available with an Apple Music subscription. Ancient Emblem - Funeral Pyre LP by Alerta Antifascista Records, released 31 October 2019 1. Autenrieth, and Andreas Makusev, with additional contributions from Frank Bartholomai (who composed most of the bard songs), Nicolas Samuel Lietzau, Sebastian Löbbers, Philipp Kapusta, Britta Wempe, Jip van Kakerken, Lara Trautmann (better known as Lara Loft), Jerryl, Jocelyn Ahlf and Liz Katrin. drake-tickets. 71 KB] folder. English Rose 15. 1khz Joint Stereo Size : 221,10 MB Track list: 1. Fuzzy Green Hat 4. Home page » 2013 » September » 26 » Basil Poledouris - Conan The Barbarian (30th Anniversary Edition) (2012) 17:01 Basil Poledouris - Conan The Barbarian (30th Anniversary Edition) (2012). Mark Korven uses a range of anxiety-inducing instrumentation to soundtrack Robert Eggers film about two Lighthouse keepers, or “wickies” holding fast to a rock in shitty weather. Fear no evil, I'm here to keep you safe. Let’s Head for Cape Verde. Size MP3 version. Revenge by Fire (06:18) 02. Outstrider - Abbath Music - MusicqBox. Says vocalist Paul Gorefiend, “This record is long-overdue, and we acknowledge that. ‎Album · 2017 · 39 Songs. En Route to the Unknown02. The Voice of My Father 03. They just play crushing songs that go from slow to slower, from muck to mire, from mosh to circle-pit. Originally released in 2017. cue) Quality: lossless Covers: Complete set (600 dpi) Amount of tracks: 13 Size RAR. Brightest pyre ever by Voodoo Tapes, released 23 November 2018 1. Hvitserk Leads to Pyre 14. The age of the Hundred Years' War (4:16) 02. Rudderless Day 9. Title Of Album: Pyre of the Black Heart Year Of Release: 2020 Label (Catalog#): Nuclear Blast Country: USA Genre: Rock Quality: FLAC (*tracks) Bitrate: Lossless Time: 00:52:03 Full Size: 352 Mb Tracklist-----01. Protozoan 4. Wreath Of Crucifix 04:56 4. Smash the Fascist 2. Ache Like Me 4. Five tracks and just shy of 20 minutes of music, "Mesh" is a digital only release and out now in the usual places: iTunes , CD Baby , and Burning Shed , and Bandcamp , where hi-res FLAC. The Witch 7. One from Russia; PYRE and one from Sweden; CORPSEHAMMER. And Soon the Darkness 4. 4 MB Star Wars Trilogy Soundtrack Anthology [Disc 4]. II: No Love Lost 3. We The Worst 6. attachment=13568Pyre (Гейнсвилл, Флорида) - американская трэш-панк группа. All Of Them Witches - Aura 2. Gouge Away Consider b/w Wave of Mutilation, released 20 March 2020 1. Limbic Infirmary 3. Only 420 copies will be made available. The Sea of Silent Trees 6. our partners use cookies to personalize your experience, to show you ads based on your interests, and for measurement and analytics purposes. Once you register your account can NOT be deleted. Quality: FLAC 16 bit / 44. 05 - The Pyre of Denethor. Vocals by Ashley Barrett. 99 USD or more. I Shelter You Burning Pyre "The Look Of Love" CS The look of love lasts forever, In your heart and in your head "The Look Of Love" is the product of dedication and. In the Pyre of Existence (Demo Version) by VOID, released 27 November 2019 1. Asteroid Blues 2. He makes literary connections that educate while at the same time tell a fresh, intriguing tale. Ocularis Terribus 3. com on 10/29/11 at 12:06PM Thanks Kevin! 02. Heavens Bliss 2. The Barrow 6. Far Beyond the Unknown 3. Animals vs. A Silhouette of Pain 10. It an absolute must have. Scavengers 2. Ethnoheretical Padmavyuha Consecration 5. Available with an Apple Music subscription. Our Love Becomes A Funeral Pyre by March 15, released 15 October 2014 1. Bleach So I ended up not liking my first album Reverberation because there was a lot of negativity surrounding its creation and the way it turned out because. 5 MB The Vision, the Sword and the Pyre Pt 2 MP3. Equal parts shred-fi, cyber-dread and fried psychedelia, Hubble Drums marks Ben Greenberg (of Zs and The Men)’s first full-length recording and debut for Northern Spy. Released: Thursday April 23rd, 2020. View of a Million Trees 9. DVDs/Live CDs * 1984: Live Undead * 1991: Decade of Aggression * 1995: Live Intrusion * 2003: War at the Warfield * 2004: Still Reigning. Darren Korb, Ashley Barrett - Pyre: Original Soundtrack flac album download free. The Nixe 6. No One Wants To Speak About It by Adzes, released 29 May 2020 1. Share this post. 0 % Test CRC 20325B8F Copy CRC 20325B8F Copy OK No errors occurred AccurateRip summary Track 1 not present in database Track 2 not present in database Track 3 not present in database Track 4 not present in database. Epk (For Diabolus In Musica 1998) (7:13). Ache Like Me 4. A Silhouette of Pain 10. Sawn Off 3. Saw Blade Suicide 3. The lyrics, written by their American singer, are poetic, painful, surreal and fit perfectly with the music. New, Fresh, and Hot Music. Scars of Time 2. Charting the Stars 6. Putnam Murdock Every Thursday night the Centre Streeters would gather in circle in a living room and evoke every damn lost, drunk, and brokenhearted song known to man in four part harmony of course. They bring doom, sludge, stoner metal, and psychedelia. 07 Kakaos 8. Light The Pyre 9. 1 kHz / 24-bit AIFF, FLAC audio formats,. "Asea Aranion" performed by Sissel) 14 - The Land of Shadow. The Ultimate Cremation Pyre by THE DAY OF THE BEAST, released 03 March 2017 1. Basil Poledouris - Conan, the Barbarian - Philipp Pelster (2015) [eClassical FLAC 24bit/44,1kHz] Posted by mqs / Posted 3 years ago March 20, 2017 Basil Poledouris - Conan, the Barbarian - Philipp Pelster (2015). After some radio success, his first recording for a film was in 1944, for the Punjabi Gul Baloch, under the musical director Shyam Sunder. I'm collecting the Soundtrack to my favorite games and have Homm 2 in wave (from CD) and managed to get MM6,7,8,9 in FLAC I Love HoMM III Soundtrack (as du we all) but from what I have heard from the birds of internet this have never been released in higher resolution then mp3 (128 kbps - original). The Funeral Pyre Debut album consisting of selected music created since the beginning of the band until now. attachment=13568Pyre (Гейнсвилл, Флорида) - американская трэш-панк группа. Aja - Haindling - Aja. Pyre: Original Soundtrack. Merciless Death 2. In the Pyre of the Existence (Official Release - Teufelmantus Records - 2020) by Void, released 16 March 2020 1. Also available today is the Pyre Original Soundtrack, packed with close to two hours of music created for the game by our award-winning composer and audio director, Darren Korb. Cursed Bloodline 9. 0 % Test CRC 20325B8F Copy CRC 20325B8F Copy OK No errors occurred AccurateRip summary Track 1 not present in database Track 2 not present in database Track 3 not present in database Track 4 not present in database. September (Those Who Come Before) 10. The Forest Where The Knights Sleep 3. Baleful Living Shadow 4. There are incoherent vocals and heavy atmospherics yet it still retains a head shaking beat. Deriding The Herd. A few weeks ago (on February 15, to be exact), Burbank-based La-La Records released Superman: The Movie - 40th Anniversary Remastered Edition: Music Composed and Conducted by John Williams, a three-CD box set that presents two versions of Maestro John Williams' 1978 score for Richard Donner's now-classic superhero film about the Man of Steel and his first confrontation with archvillain Lex Luthor. Obliteration Of Faith 9. Artist: Eloy Album: The Vision, The Sword And The Pyre, Pt. 11 posts in this topic xcblackdiamond. You may like these posts. We’re in Space?! Soundtrack FLAC. A misnomer, this is not the Eddie Davis Trio featuring Shirley Scott Complete Recordings as the CD title wants us to believe. Big Cat Rescue 6. 《最终幻想15》 (21) 最终幻想15官方mod制作工具已放出!!! 3dm最终幻想15玩家二群:722073687 一群:671930153(已满) 最终幻想15专题站||《最终幻想15》mod下载||3dm 最终幻想15 debug (开发者模式) 菜单汉化||官方中文《最终幻想15:艾汀之章》pc中文正式版||官方mod工具||图文全攻略||攻略秘籍专题||3dmgame玩家. Lossless Albums » FLAC 16 bit » Marko Hietala - Pyre of the Black Heart (2020) FLAC Genres: FLAC 16 bit / Rock 23-01-2020, 13:38 130 aleXs All music Marko Hietala. Release date: June 3rd, 2019 Far East Blacking Metal Warship!. Nonworld 4. 20 - Kumi Tanioka - A Gentile Wind Blows, Download, 11M. Don't Stop Until You Die 3. Weltschmerz 3. The Proustian Chain 5. Kingdom Leaks's financial obligations can only be met with the help of user donations. Melted Icons of Christ 2. The Jam : At The BBC - The Jam At The Rainbow The Jam were the most popular band to emerge from the initial wave of British punk rock in 1977; along with the Sex Pistols, the Clash, and the Buzzcocks, the Jam had the most impact on pop music. Misanthropic Isolation 9. No Empires 5. I'm collecting the Soundtrack to my favorite games and have Homm 2 in wave (from CD) and managed to get MM6,7,8,9 in FLAC I Love HoMM III Soundtrack (as du we all) but from what I have heard from the birds of internet this have never been released in higher resolution then mp3 (128 kbps - original). Into The Elder Grove.